Absolute Power
Absolutely

Filmy, gry, aplikacje, muzyka i inne. Najlepsze torrenty w jednym miejscu.

Berlin Station – Sezon 2 [1080p.NF.WEB-DL.H.264.AC3] [Lektor PL]

Data dodania: Styczeń 21, 2018
Dodane przez: kakarotto5555

Kategoria: Filmy z Lektorem, Seriale Zagraniczne, Filmy x264/h264

Ostatnia Aktualizacja: Styczeń 21, 2018

Komentarzy: 0

Ocen ten Torrent:

No votes yet.
Please wait...

Rozmiar: 17.85 GB

Seedów: 0

Leecherów: 1

Liczba pobrań: 11

Aktualizacja Trackerów: Live

ZobaczPobierz

INFO O TORRENCIE

produkcja: Niemcy, USA
gatunek: Thriller
reżyseria: Michaël R. Roskam, Christoph Schrewe, John David Coles
scenariusz: Olen Steinhauer, Larry J. Cohen
zdjęcia: Hagen Bogdanski
muzyka: Reinhold Heil
czas trwania: ok. 44-56 min.

Głównym bohaterem serialu „Berlin Station” jest Daniel Miller. Agent przyjeżdża do niemieckiej rezydentury CIA w Berlinie. Zostaje tam wysłany z tajną misją – musi ustalić, jak doszło do wycieku tajnych informacji, w których posiadaniu jest słynny demaskator o pseudonimie Thomas Shaw. Przewodnikiem Millera po mieście jest zaprawiony w szpiegowskich intrygach weteran, Hector DeJean, który wprowadza go w brutalne realia pracy pod przykrywką, gdzie manipulacje, oszustwa, niebezpieczeństwo i moralne kompromisy są codziennością. Kiedy Daniel zaczyna orientować się w pogmatwanej sytuacji, wpada na trop spisku, który prowadzi go aż do Waszyngtonu. Zaczyna się również zastanawiać, czy jego życie będzie jeszcze takie samo?

Richard Armitage – Daniel Miller
Richard Dillane – Gerald Ellman
Michelle Forbes – Valerie Edwards
Richard Jenkins – Steven Frost
Rhys Ifans – Hector DeJean
Tamlyn Tomita – Sandra Abe
Bernhard Schütz – Hans Richter
Leland Orser – Robert Kirsch

Format : Matroska
Format version : Version 4 / Version 2
File size : 1.98 GiB
Duration : 51 min 51 s
Overall bit rate mode : Variable
Overall bit rate : 5 462 kb/s
Encoded date : UTC 2017-11-24 20:15:17

Video
ID : 1
Format : AVC
Format/Info : Advanced Video Codec
Format profile : [email protected]
Format settings, CABAC : Yes
Format settings, RefFrames : 3 frames
Codec ID : V_MPEG4/ISO/AVC
Duration : 51 min 51 s
Bit rate mode : Variable
Bit rate : 5 110 kb/s
Maximum bit rate : 7 665 kb/s
Width : 1 920 pixels
Height : 1 080 pixels
Display aspect ratio : 16:9
Frame rate mode : Constant
Frame rate : 23.976 (24000/1001) FPS
Color space : YUV
Chroma subsampling : 4:2:0
Bit depth : 8 bits
Scan type : Progressive
Bits/(Pixel*Frame) : 0.103
Stream size : 1.84 GiB (93%)
Writing library : x264 core 148

Audio
ID : 2
Format : AC-3
Format/Info : Audio Coding 3
Format settings, Endianness : Big
Codec ID : A_AC3
Duration : 51 min 51 s
Bit rate mode : Constant
Bit rate : 384 kb/s
Channel(s) : 2 channels
Channel positions : Front: L R
Sampling rate : 48.0 kHz
Frame rate : 31.250 FPS (1536 SPF)
Bit depth : 16 bits
Compression mode : Lossy
Stream size : 142 MiB (7%)
Language : Polish

SCREENY

TRAILER

LISTA PLIKÓW

Nazwa: Rozmiar:
Berlin Station - Sezon 2 [1080p.NF.WEB-DL.H.264.AC3] [Lektor PL]/Berlin Station S02E01 - Everything's Gonna Be Alt-Right [1080p.NF.WEB-DL.H.264.AC3] [Lektor PL].mkv 1.98 GB
Berlin Station - Sezon 2 [1080p.NF.WEB-DL.H.264.AC3] [Lektor PL]/Berlin Station S02E02 - Right Here, Right Now [1080p.NF.WEB-DL.H.264.AC3] [Lektor PL].mkv 4.67 GB
Berlin Station - Sezon 2 [1080p.NF.WEB-DL.H.264.AC3] [Lektor PL]/Berlin Station S02E03 - Right to the Heart [1080p.NF.WEB-DL.H.264.AC3] [Lektor PL].mkv 6.48 GB
Berlin Station - Sezon 2 [1080p.NF.WEB-DL.H.264.AC3] [Lektor PL]/Berlin Station S02E04 - Do the Right Thing [1080p.NF.WEB-DL.H.264.AC3] [Lektor PL].mkv 8.35 GB
Berlin Station - Sezon 2 [1080p.NF.WEB-DL.H.264.AC3] [Lektor PL]/Berlin Station S02E05 - Right of Way [1080p.NF.WEB-DL.H.264.AC3] [Lektor PL].mkv 10.09 GB
Berlin Station - Sezon 2 [1080p.NF.WEB-DL.H.264.AC3] [Lektor PL]/Berlin Station S02E06 - The Right Hook [1080p.NF.WEB-DL.H.264.AC3] [Lektor PL].mkv 11.78 GB
Berlin Station - Sezon 2 [1080p.NF.WEB-DL.H.264.AC3] [Lektor PL]/Berlin Station S02E07 - Right and Wrong [1080p.NF.WEB-DL.H.264.AC3] [Lektor PL].mkv 13.71 GB
Berlin Station - Sezon 2 [1080p.NF.WEB-DL.H.264.AC3] [Lektor PL]/Berlin Station S02E08 - The Righteous One [1080p.NF.WEB-DL.H.264.AC3] [Lektor PL].mkv 15.88 GB
Berlin Station - Sezon 2 [1080p.NF.WEB-DL.H.264.AC3] [Lektor PL]/Berlin Station S02E09 - Winners Right the History Books [1080p.NF.WEB-DL.H.264.AC3] [Lektor PL].mkv 17.85 GB



  • KOMENTARZE

    Dodaj komentarz

    OGLĄDAJ FILMY I SERIALE ONLINE ZA DARMO!ZOBACZ!
    +