Jerelino Augustuszoon
Marta Sebestyen

Filmy, gry, aplikacje, muzyka i inne. Najlepsze torrenty w jednym miejscu.

Criminal *2016* [TS.XviD-VAiN] [ENG]

Data dodania: Sierpień 14, 2016
Dodane przez: Ogau

Kategoria: Filmy Eng/Napisy, Filmy TS/CAM

Ostatnia Aktualizacja: Sierpień 14, 2016

Komentarzy: 0

Ocen ten Torrent:

No votes yet.
Please wait...

Rozmiar: 1.44 GB

Seedów: 0

Leecherów: 0

Liczba pobrań: 13

Aktualizacja Trackerów: Live

ZobaczPobierz

INFO O TORRENCIE

…::: ( O Filmie: ) :::…
Produkcja: USA, Wielka Brytania
Gatunek: Dramat, Kryminał, Akcja
Premiera: 5 lutego 2016 (świat)
Reżyseria: Array
Scenariusz: Douglas Cook, David Weisberg

…::: ( Opis: ) :::…

Wspomnienia i umiejętności zmarłego agenta CIA zostają wszczepione skazańcowi, by mógł dokończyć jego misję.

…::: ( Obsada: ) :::…

★ Kevin Costner …. Jericho Stewart
★ Ryan Reynolds …. Bill Pope
★ Gal Gadot …. Jill Pope
★ Gary Oldman …. Quaker Wells
★ Tommy Lee Jones …. Dr Franks
★ Alice Eve …. Marta Lynch
★ Jordi Mollà …. Hagbardaka Heimbahl
★ Scott Adkins …. Pete Greensleeves

…::: ( Dane Tech: ) :::…

Basic Information
Format : AVI
Format/Info : Audio Video Interleave
File size : 1.42 GiB
Duration : 1h 44mn
Overall bit rate : 1 948 Kbps
Writing application : VirtualDubMod 1.5.10.2 (build 2540/release)
Writing library : VirtualDubMod build 2540/release

Video
ID : 0
Format : MPEG-4 Visual
Format profile : Advanced [email protected]
Format settings, BVOP : 2
Format settings, QPel : No
Format settings, GMC : No warppoints
Format settings, Matrix : Default (H.263)
Muxing mode : Packed bitstream
Codec ID : XVID
Codec ID/Hint : XviD
Duration : 1h 44mn
Bit rate : 1 733 Kbps
Width : 720 pixels
Height : 288 pixels
Display aspect ratio : 2.500
Frame rate : 60.000 fps
Color space : YUV
Chroma subsampling : 4:2:0
Bit depth : 8 bits
Scan type : Progressive
Compression mode : Lossy
Bits/(Pixel*Frame) : 0.139
Stream size : 1.27 GiB (89%)
Writing library : XviD 64

Audio
ID : 1
Format : AC-3
Format/Info : Audio Coding 3
Mode extension : CM (complete main)
Format settings, Endianness : Big
Codec ID : 2000
Duration : 1h 44mn
Bit rate mode : Constant
Bit rate : 192 Kbps
Channel(s) : 2 channels
Channel positions : Front: L R
Sampling rate : 44.1 KHz
Frame rate : 28.711 fps (1536 spf)
Compression mode : Lossy
Stream size : 144 MiB (10%)
Alignment : Split accross interleaves
Interleave, duration : 17 ms (1.00 video frame)
Interleave, preload duratio : 500 ms

E N C O D E R S . N O T E S . . .

SOURCE……: ViDEO…Exclusive-CPG
…………: AUDiO…Exclusive-CPG
SAMPLE……: Yippers
ADDED NOTE..: most of the work done was to fix the AR. did messs with a few things here and there to make QUALiTY a bit better…

audio very nice vid ok…

SCREENY

TRAILER

LISTA PLIKÓW

Nazwa: Rozmiar:
Criminal.2016.TS.XviD-VAiN/Criminal.2016.TS.XviD-VAiN.avi 1.42 GB
Criminal.2016.TS.XviD-VAiN/Torrent Downloaded From ExtraTorrent.cc.txt 1.42 GB
Criminal.2016.TS.XviD-VAiN/VAiN.nfo 1.42 GB
Criminal.2016.TS.XviD-VAiN/sample.avi 1.44 GB



  • KOMENTARZE

    Dodaj komentarz

    OGLĄDAJ FILMY I SERIALE ONLINE ZA DARMO!ZOBACZ!
    +